MejorTorrent
Inicio   -   Principal   -   Ayuda   -   Últimos Torrents

Ariana Grande (Ft.Nicki Minaj)
Descarga la última versión de uTorrent y baja a la máxima velocidad:

Ariana Grande (Ft.Nicki Minaj)

Descargar Ariana Grande (Ft.Nicki Minaj) Torrent


separador Género:  Variados

Total Descargas:  750



separador Torrent:      
        Tamaño:  375,39 MB

separador

Descripción:

General

Format : MPEG-TS

File size : 375 MB

Duration : 3mn 48s

Overall bit rate mode : Variable

Overall bit rate : 13.8 Mbps

Video

Duration : 3mn 48s

Bit rate mode : Variable

Bit rate : 12.7 Mbps

Maximum bit rate : 24.0 Mbps

Width : 1 920 pixels

Height : 1 080 pixels

Display aspect ratio : 16:9

Frame rate : 29.970 (30000/1001) fps

Bits/(Pixel*Frame) : 0.204

Stream size : 346 MiB (92%)

Audio

Duration : 3mn 48s

Bit rate mode : Constant

Bit rate : 384 Kbps

Channel(s) : 6 channels

Channel positions : Front: L C R, Side: L R, LFE

Sampling rate : 48.0 KHz

Frame rate : 31.250 fps (1536 spf)

Stream size : 10.5 MiB (3%)

Language : English



Posts Relacionados




Volver al índice de Variados









21:10:38
computer


DMCA.com Protection Status 15 - 7 Episódio 7 | Craig McLachlan | Watch God Friended Me Online